* Dettagli Torrent   globale  | Commenti (0) 


- Invasion.2021.S01E08.Contatto.iTALiAN.MULTi.HDR.2160p.WEB.H265-MeM.GP.mkv -


Download via torrent:
Categoria bittorrent SerieTv
Descrizione
[center]

Invasion.S01.iTALIAN.MULTI.2160p.HDR.WEB.x265-M&M.GP.CreW[/center]

[center]

Titolo Originale: Invasion
Anno: 2021
Stagione: 10
Episodi: 10??
Durata: 45 min (episodio)
Genere: dramma, fantasy, shi-fi


Trama:
Dai produttori Simon Kinberg, candidato agli Oscar e agli Emmy Award, e David Weil, “Invasion” è una travolgente serie drammatica di fantascienza che racconta un’invasione aliena attraverso diverse prospettive in tutto il mondo. Girata in vari continenti, “Invasion” vede protagonisti Shamier Anderson, Golshifteh Farahani, Sam Neill, Firas Nassar e Shioli Kutsuna.

I primi tre episodi di “Invasion” debutteranno il 22 ottobre 2021, seguiti da un nuovo episodio a settimana, ogni venerdì.

L’arrivo di una specie aliena sulla Terra minaccia l’umanità. La narrazione si svolge attraverso lo
sguardo di cinque persone comuni sparse per il mondo, sconvolte testimoni del caos dilagante.








Sorgente Video:  WEB-DL Apple TV
Sorgente Audio: Apple TV
Risoluzione: 3840x1920, x265
Audio 1: ITA E-AC-3 JOC 6ch @ 768 kb/s
Audio 2: ENG E-AC-3 JOC 6ch @ 768 kb/s
Sottotitoli:  ITA FORCED, ITA FULL, ENG FULL[/center]

Code

Invasion.2021.S01E01.L.ultimo.giorno.2160p.WEB-DL.x265.10bit.HDR.DDP5.1.Atmos-MeM.GP.mkv
Format                                   : Matroska
Format version                           : Version 4 / Version 2
File size                                : 10.1 GiB
Duration                                 : 55mn 50s
Overall bit rate                         : 26.0 Mbps
Encoded date                             : UTC 2021-10-22 08:47:58
Writing application                      : mkvmerge v7.6.0 ('Garden of Dreams&#39 64bit built on Feb  8 2015 15:12:28
Writing library                          : libebml v1.3.1 + libmatroska v1.4.2
_STATISTICS_WRITING_APP                  : mkvmerge v7.6.0 ('Garden of Dreams&#39 64bit built on Feb  8 2015 15:12:28
_STATISTICS_WRITING_DATE_UTC             : 2021-10-22 08:47:58
_STATISTICS_TAGS                         : BPS DURATION NUMBER_OF_FRAMES NUMBER_OF_BYTES
DURATION                                 : 00:53:28.417000000
NUMBER_OF_FRAMES                         : 579
NUMBER_OF_BYTES                          : 17560

Video
ID                                       : 1
Format                                   : V_MPEGH/ISO/HEVC
Codec ID                                 : V_MPEGH/ISO/HEVC
Duration                                 : 55mn 50s
Bit rate                                 : 23.9 Mbps
Width                                    : 3 840 pixels
Height                                   : 1 920 pixels
Display aspect ratio                     : 2.000
Frame rate                               : 23.976 fps
Bits/(Pixel*Frame)                       : 0.135
Stream size                              : 9.33 GiB (92%)
Language                                 : English
Default                                  : Yes
Forced                                   : No

Audio #1
ID                                       : 2
Format                                   : E-AC-3
Format/Info                              : Audio Coding 3
Codec ID                                 : A_EAC3
Duration                                 : 55mn 50s
Bit rate mode                            : Constant
Bit rate                                 : 768 Kbps
Channel(s)                               : 6 channels
Channel positions                        : Front: L C R, Side: L R, LFE
Sampling rate                            : 48.0 KHz
Compression mode                         : Lossy
Stream size                              : 307 MiB (3%)
Language                                 : Italian
Default                                  : Yes
Forced                                   : No

Audio #2
ID                                       : 3
Format                                   : E-AC-3
Format/Info                              : Audio Coding 3
Codec ID                                 : A_EAC3
Duration                                 : 55mn 50s
Bit rate mode                            : Constant
Bit rate                                 : 768 Kbps
Channel(s)                               : 6 channels
Channel positions                        : Front: L C R, Side: L R, LFE
Sampling rate                            : 48.0 KHz
Compression mode                         : Lossy
Stream size                              : 307 MiB (3%)
Language                                 : English
Default                                  : No
Forced                                   : No

Text #1
ID                                       : 4
Format                                   : UTF-8
Codec ID                                 : S_TEXT/UTF8
Codec ID/Info                            : UTF-8 Plain Text
Title                                    : Italian (forced)
Language                                 : Italian
Default                                  : Yes
Forced                                   : Yes

Text #2
ID                                       : 5
Format                                   : UTF-8
Codec ID                                 : S_TEXT/UTF8
Codec ID/Info                            : UTF-8 Plain Text
Title                                    : English (forced)
Language                                 : English
Default                                  : No
Forced                                   : No

Text #3
ID                                       : 6
Format                                   : UTF-8
Codec ID                                 : S_TEXT/UTF8
Codec ID/Info                            : UTF-8 Plain Text
Title                                    : Italiano
Language                                 : Italian
Default                                  : No
Forced                                   : No

Text #4
ID                                       : 7
Format                                   : UTF-8
Codec ID                                 : S_TEXT/UTF8
Codec ID/Info                            : UTF-8 Plain Text
Title                                    : Italiano  [SDH]
Language                                 : Italian
Default                                  : No
Forced                                   : No

Text #5
ID                                       : 8
Format                                   : UTF-8
Codec ID                                 : S_TEXT/UTF8
Codec ID/Info                            : UTF-8 Plain Text
Title                                    : English
Language                                 : English
Default                                  : No
Forced                                   : No

Text #6
ID                                       : 9
Format                                   : UTF-8
Codec ID                                 : S_TEXT/UTF8
Codec ID/Info                            : UTF-8 Plain Text
Title                                    : English  [SDH]
Language                                 : English
Default                                  : No
Forced                                   : No



[center]








[/center]
Info: Per scaricare devi usare un client come uTorrent o Transmission
AnnounceURL
udp://tracker.opentrackr.org:1337/announce
Hash 9ab3f52e8208f8bac15d2c524f04f112b5a3576a
Peers seeds: 27 , leech: 8
Size 8.63 GB
Completato 584x
Aggiunto 25.11.21 - 21:11:08
Uploader   ppb1
Votazione (Voti: 0)


Condividi questo bittorrent:


html/blog:


bbcode/forum:




Aggiungi Commento