* Dettagli Torrent   globale  | Commenti (0) 


- Hightown.S02E01.Great.White.ITA-ENG.1080p.AMZN.WEB-DL.DDP5.1.H.264-gattopollo.mkv -


Download via torrent:
Categoria bittorrent SerieTv
Descrizione
[center].:: TITOLO ::.[/center]

[center]Hightown.S02.ITA-ENG.1080p.AMZN.WEB-DL.DDP5.1.H.264-gattopollo[/center]

[center][/center]

[center].:: INFO SERIE ::.[/center]

[center]
Genere: Crime - Drama
Creatore: Rebecca Cutter
Paese d'origine: United States
Lingua Originale: Inglese
Stagione: 2
Episodi: 10
IMDb


.:: TRAMA ::.


Nella seconda stagione di Hightown, l'immagine perfetta dell'estate a Cape Cod si scontra con la sua realtà fuori stagione. Jackie Quinones (Raymund) ha realizzato il suo sogno di diventare una vera poliziotta ed è pronta a fare del bene in questo mondo

.:: SCREENSHOT ::.

[/center]

[center].:: INFO TECNICHE ::.

Sorgente Video: AMAZON
Sorgente Audio : AMAZON
Risoluzione: 1920x1080, H.264 @ 10000kb/s CBR
Audio 1: ITA E-AC3  6ch @640Kb/s
Audio 1: ENG E-AC3  6ch @640Kb/s
Sottotitoli: ITA FORCED, ITA FULL, ENG FORCED, ENG FULL, ENG SDH [/center]

[center].:: MEDIAINFO ::.[/center]


Code

General
Unique ID                                : 174756803247680853776279059041428251555 (0x8378EFA00E5195B3D6B28DC0ADF123A3)
Complete name                            : Hightown.S02E01.Great.White.ITA-ENG.1080p.AMZN.WEB-DL.DDP5.1.H.264-gattopollo.mkv
Format                                   : Matroska
Format version                           : Version 4
File size                                : 4.13 GiB
Duration                                 : 55 min 31 s
Overall bit rate                         : 10.7 Mb/s
Encoded date                             : UTC 2021-10-18 08:37:58
Writing application                      : mkvmerge v62.0.0 ('Apollo&#39 64-bit
Writing library                          : libebml v1.4.2 + libmatroska v1.6.4

Video
ID                                       : 1
Format                                   : AVC
Format/Info                              : Advanced Video Codec
Format profile                           : [email protected]
Format settings                          : CABAC / 4 Ref Frames
Format settings, CABAC                   : Yes
Format settings, Reference frames        : 4 frames
Codec ID                                 : V_MPEG4/ISO/AVC
Duration                                 : 55 min 31 s
Bit rate mode                            : Constant
Bit rate                                 : 9 378 kb/s
Nominal bit rate                         : 10 000 kb/s
Width                                    : 1 920 pixels
Height                                   : 1 080 pixels
Display aspect ratio                     : 16:9
Frame rate mode                          : Constant
Frame rate                               : 23.976 (24000/1001) FPS
Color space                              : YUV
Chroma subsampling                       : 4:2:0
Bit depth                                : 8 bits
Scan type                                : Progressive
Bits/(Pixel*Frame)                       : 0.189
Stream size                              : 3.64 GiB (88%)
Language                                 : English
Default                                  : Yes
Forced                                   : No
Color range                              : Limited
Color primaries                          : BT.709
Transfer characteristics                 : BT.709
Matrix coefficients                      : BT.709

Audio #1
ID                                       : 2
Format                                   : E-AC-3
Format/Info                              : Enhanced AC-3
Commercial name                          : Dolby Digital Plus
Codec ID                                 : A_EAC3
Duration                                 : 55 min 31 s
Bit rate mode                            : Constant
Bit rate                                 : 640 kb/s
Channel(s)                               : 6 channels
Channel layout                           : L R C LFE Ls Rs
Sampling rate                            : 48.0 kHz
Frame rate                               : 31.250 FPS (1536 SPF)
Compression mode                         : Lossy
Stream size                              : 254 MiB (6%)
Title                                    : Italian
Language                                 : Italian
Service kind                             : Complete Main
Default                                  : Yes
Forced                                   : No

Audio #2
ID                                       : 3
Format                                   : E-AC-3
Format/Info                              : Enhanced AC-3
Commercial name                          : Dolby Digital Plus
Codec ID                                 : A_EAC3
Duration                                 : 55 min 31 s
Bit rate mode                            : Constant
Bit rate                                 : 640 kb/s
Channel(s)                               : 6 channels
Channel layout                           : L R C LFE Ls Rs
Sampling rate                            : 48.0 kHz
Frame rate                               : 31.250 FPS (1536 SPF)
Compression mode                         : Lossy
Stream size                              : 254 MiB (6%)
Title                                    : English
Language                                 : English
Service kind                             : Complete Main
Default                                  : No
Forced                                   : No

Text #1
ID                                       : 4
Format                                   : UTF-8
Codec ID                                 : S_TEXT/UTF8
Codec ID/Info                            : UTF-8 Plain Text
Duration                                 : 45 min 52 s
Bit rate                                 : 0 b/s
Count of elements                        : 11
Stream size                              : 288 Bytes (0%)
Title                                    : Italian [Forced]
Language                                 : Italian
Default                                  : Yes
Forced                                   : Yes

Text #2
ID                                       : 5
Format                                   : UTF-8
Codec ID                                 : S_TEXT/UTF8
Codec ID/Info                            : UTF-8 Plain Text
Duration                                 : 55 min 16 s
Bit rate                                 : 64 b/s
Count of elements                        : 869
Stream size                              : 26.3 KiB (0%)
Title                                    : Italian
Language                                 : Italian
Default                                  : No
Forced                                   : No

Text #3
ID                                       : 6
Format                                   : UTF-8
Codec ID                                 : S_TEXT/UTF8
Codec ID/Info                            : UTF-8 Plain Text
Duration                                 : 55 min 14 s
Bit rate                                 : 75 b/s
Count of elements                        : 1058
Stream size                              : 30.4 KiB (0%)
Title                                    : English
Language                                 : English
Default                                  : No
Forced                                   : No

Text #4
ID                                       : 7
Format                                   : UTF-8
Codec ID                                 : S_TEXT/UTF8
Codec ID/Info                            : UTF-8 Plain Text
Duration                                 : 55 min 17 s
Bit rate                                 : 89 b/s
Count of elements                        : 1244
Stream size                              : 36.2 KiB (0%)
Title                                    : English [SDH]
Language                                 : English
Default                                  : No
Forced                                   : No





Info: Per scaricare devi usare un client come uTorrent o Transmission
AnnounceURL
udp://tracker.torrent.eu.org:451/announce
Hash 6bc5fd6636c33a4c86e14e911bec0bdead053bc3
Peers seeds: 20 , leech: 7
Size 4.13 GB
Completato 258x
Aggiunto 18.10.21 - 17:10:26
Uploader   ppb1
Votazione (Voti: 0)


Condividi questo bittorrent:


html/blog:


bbcode/forum:




Aggiungi Commento