* Dettagli Torrent   globale  | Commenti (0) 


- Hightown.S01.ITA-ENG.1080p.AMZN.WEB-DL.DDP5.1.H.264-gattopollo -


Download via torrent:
Categoria bittorrent SerieTv
Descrizione
[center].:: TITOLO ::.[/center]

[center]Hightown.S01.ITA-ENG.1080p.AMZN.WEB-DL.DDP5.1.H.264-gattopollo[/center]

[center][/center]

[center].:: INFO SERIE ::.[/center]

[center]
Genere: Crime - Drama
Creatore: Rebecca Cutter
Paese d'origine: United States
Lingua Originale: Inglese
Stagione: 1
Episodi: 8
IMDb


.:: TRAMA ::.


Hightown segue le vicende di Jackie Quinones (Monica Raymund), un agente del National Marine Fisheries Service che usa la sua pistola e il suo distintivo per sedurre ragazze turiste. La donna trascorre le sue giornate ispezionando la cattura dei pescatori e le notti perdendosi tra sesso, alcool e droghe.

.:: SCREENSHOT ::.

[/center]

[center].:: INFO TECNICHE ::.

Sorgente Video: AMAZON
Sorgente Audio : AMAZON
Risoluzione: 1920x1080, H.264 @ 10000kb/s CBR
Audio 1: ITA E-AC3  6ch @640Kb/s
Audio 1: ENG E-AC3  6ch @640Kb/s
Sottotitoli: ITA FORCED, ITA FULL, ENG FORCED, ENG FULL, ENG SDH [/center]

[center].:: MEDIAINFO ::.[/center]


Code

General
Unique ID                                : 107326897245452643605716529343862005418 (0x50BE68950CBD605B11C87845A33DDEAA)
Complete name                            : Hightown.S01E01.Come.Una.Sorella.ITA-ENG.1080p.AMZN.WEB-DL.DDP5.1.H.264-gattopollo.mkv
Format                                   : Matroska
Format version                           : Version 4
File size                                : 4.38 GiB
Duration                                 : 56 min 49 s
Overall bit rate                         : 11.0 Mb/s
Encoded date                             : UTC 2021-10-18 06:47:52
Writing application                      : mkvmerge v62.0.0 ('Apollo&#39 64-bit
Writing library                          : libebml v1.4.2 + libmatroska v1.6.4

Video
ID                                       : 1
Format                                   : AVC
Format/Info                              : Advanced Video Codec
Format profile                           : [email protected]
Format settings                          : CABAC / 4 Ref Frames
Format settings, CABAC                   : Yes
Format settings, Reference frames        : 4 frames
Codec ID                                 : V_MPEG4/ISO/AVC
Duration                                 : 56 min 49 s
Bit rate mode                            : Constant
Bit rate                                 : 10 000 kb/s
Width                                    : 1 920 pixels
Height                                   : 1 080 pixels
Display aspect ratio                     : 16:9
Frame rate mode                          : Constant
Frame rate                               : 23.976 (24000/1001) FPS
Color space                              : YUV
Chroma subsampling                       : 4:2:0
Bit depth                                : 8 bits
Scan type                                : Progressive
Bits/(Pixel*Frame)                       : 0.201
Stream size                              : 3.87 GiB (88%)
Language                                 : English
Default                                  : Yes
Forced                                   : No
Color range                              : Limited
Color primaries                          : BT.709
Transfer characteristics                 : BT.709
Matrix coefficients                      : BT.709

Audio #1
ID                                       : 2
Format                                   : E-AC-3
Format/Info                              : Enhanced AC-3
Commercial name                          : Dolby Digital Plus
Codec ID                                 : A_EAC3
Duration                                 : 56 min 49 s
Bit rate mode                            : Constant
Bit rate                                 : 640 kb/s
Channel(s)                               : 6 channels
Channel layout                           : L R C LFE Ls Rs
Sampling rate                            : 48.0 kHz
Frame rate                               : 31.250 FPS (1536 SPF)
Compression mode                         : Lossy
Stream size                              : 260 MiB (6%)
Title                                    : Italian
Language                                 : Italian
Service kind                             : Complete Main
Default                                  : Yes
Forced                                   : No

Audio #2
ID                                       : 3
Format                                   : E-AC-3
Format/Info                              : Enhanced AC-3
Commercial name                          : Dolby Digital Plus
Codec ID                                 : A_EAC3
Duration                                 : 56 min 49 s
Bit rate mode                            : Constant
Bit rate                                 : 640 kb/s
Channel(s)                               : 6 channels
Channel layout                           : L R C LFE Ls Rs
Sampling rate                            : 48.0 kHz
Frame rate                               : 31.250 FPS (1536 SPF)
Compression mode                         : Lossy
Stream size                              : 260 MiB (6%)
Title                                    : English
Language                                 : English
Service kind                             : Complete Main
Default                                  : No
Forced                                   : No

Text #1
ID                                       : 4
Format                                   : UTF-8
Codec ID                                 : S_TEXT/UTF8
Codec ID/Info                            : UTF-8 Plain Text
Duration                                 : 28 min 50 s
Bit rate                                 : 0 b/s
Count of elements                        : 3
Stream size                              : 102 Bytes (0%)
Title                                    : Italian [Forced]
Language                                 : Italian
Default                                  : Yes
Forced                                   : Yes

Text #2
ID                                       : 5
Format                                   : UTF-8
Codec ID                                 : S_TEXT/UTF8
Codec ID/Info                            : UTF-8 Plain Text
Duration                                 : 54 min 54 s
Bit rate                                 : 52 b/s
Count of elements                        : 687
Stream size                              : 21.2 KiB (0%)
Title                                    : Italian
Language                                 : Italian
Default                                  : No
Forced                                   : No

Text #3
ID                                       : 6
Format                                   : UTF-8
Codec ID                                 : S_TEXT/UTF8
Codec ID/Info                            : UTF-8 Plain Text
Duration                                 : 52 min 9 s
Bit rate                                 : 63 b/s
Count of elements                        : 848
Stream size                              : 24.4 KiB (0%)
Title                                    : English
Language                                 : English
Default                                  : No
Forced                                   : No

Text #4
ID                                       : 7
Format                                   : UTF-8
Codec ID                                 : S_TEXT/UTF8
Codec ID/Info                            : UTF-8 Plain Text
Duration                                 : 56 min 31 s
Bit rate                                 : 76 b/s
Count of elements                        : 1176
Stream size                              : 31.7 KiB (0%)
Title                                    : English [SDH]
Language                                 : English
Default                                  : No
Forced                                   : No

Menu
00:00:00.000                             : en:Opening Credits
00:01:36.000                             : en:Scene 2
00:05:37.000                             : en:Scene 3
00:15:14.000                             : en:Scene 4
00:23:13.000                             : en:Scene 5
00:31:37.000                             : en:Scene 6
00:36:56.000                             : en:Scene 7
00:49:29.000                             : en:Scene 8
00:56:37.000                             : en:End Credits, Next On




Info: Per scaricare devi usare un client come uTorrent o Transmission
AnnounceURL
udp://tracker.torrent.eu.org:451/announce
Hash 8ab3fd97185ce6eac55b217ad391204296ca2aea
Peers seeds: 19 , leech: 15
Size 34.67 GB
Completato 319x
Aggiunto 18.10.21 - 17:10:35
Uploader   ppb1
Votazione (Voti: 0)


Condividi questo bittorrent:


html/blog:


bbcode/forum:




Aggiungi Commento