* Dettagli Torrent   globale  | Commenti (0) 


- Aracnofobia (1990).1080p.H264.ita.eng.Ac3.sub.eng-MIRCrew mux by robbyrs -


Download via torrent:
Categoria bittorrent BDRip
Descrizione
Venite a trovarci su mircrew-releases.org


Arachnophobia - Aracnofobia (1990).1080p.H264.ita.eng.Ac3.sub.eng-MIRCrew mux by robbyrs


NO FOUND ONLY ORIGINAL RELEASE

My release is always in double track audio italian and Original audio
for select it use VLC or dvd player home
not use wmp

Aracnofobia - Arachnophobia (1990)

Quality MIRCrew on HD 1080p da 2,2 gb mux by robbyrs









Riconoscimenti

1991 - Saturn Award
Miglior film horror
Miglior attore protagonista a Jeff Daniels

Titolo originale Arachnophobia
Paese di produzione USA
Anno 1990
Durata 105 min
Genere commedia, orrore
Regia Frank Marshall
Soggetto Don Jakoby, Al Williams
Sceneggiatura Don Jakoby, Wesley Strick
Casa di produzione Hollywood Pictures, Amblin Entertainment
Fotografia Mikael Salomon
Montaggio Michael Kahn
Musiche Trevor Jones



Jeff Daniels: Dr. Ross Jennings
Harley Jane Kozak: Molly Jennings
John Goodman: Delbert McClintock
Julian Sands: Dr. James Atherton
Stuart Pankin: Sceriffo Lloyd Parsons
Brian McNamara: Chris Collins
Mark L. Taylor: Jerry Manley
Henry Jones: Dr. Sam Metcalf
Peter Jason: Henry Beechwood



In Venezuela, il dottor James Atherton si reca nella foresta pluviale con la speranza di scoprire nuove specie di insetti e aracnidi ma si imbatte in una specie di ragno molto aggressiva che riesce a catturare; l'animale viene studiato e si scopre essere privo di organi sessuali. Un altro ragno della stessa specie (che si scopre essere fertile) si infila nello zaino del fotografo Jerry Manley e, con il suo morso...............



A species of South American killer spider hitches a lift to the U.S. in a coffin and starts to breed and kill. ......

 









General

Complete name                            : Aracnofobia - Arachnophobia (1990).1080p.h264.ita.eng.sub.eng-MIRCrewAracnofobia - Arachnophobia (1990).1080p.h264.ita.eng.sub.eng-MIRCrew.mkv
Format                                   : Matroska
Format version                           : Version 2
File size                                : 2.21 GiB
Duration                                 : 1h 49mn
Overall bit rate                         : 2 886 Kbps
Movie name                               : MIRCrew mux
Encoded date                             : UTC 2020-08-02 13:12:22
Writing application                      : mkvmerge v5.4.0 ('Piper&#39 built on Mar 10 2012 13:34:39
Writing library                          : libebml v1.2.3 + libmatroska v1.3.0

Video
ID                                       : 1
Format                                   : AVC
Format/Info                              : Advanced Video Codec
Format profile                           : [email protected]
Format settings, CABAC                   : Yes
Format settings, ReFrames                : 4 frames
Codec ID                                 : V_MPEG4/ISO/AVC
Duration                                 : 1h 49mn
Bit rate                                 : 2 500 Kbps
Width                                    : 1 920 pixels
Height                                   : 1 040 pixels
Display aspect ratio                     : 16:9
Frame rate                               : 23.976 fps
Color space                              : YUV
Chroma subsampling                       : 4:2:0
Bit depth                                : 8 bits
Scan type                                : Progressive
Bits/(Pixel*Frame)                       : 0.052
Stream size                              : 1.87 GiB (85%)
Title                                    : MIRCrew mub by robbyrs
Writing library                          : x264 core 152 r2851M ba24899
Encoding settings                        : cabac=1 / ref=4 / deblock=1:-1:-1 / analyse=0x3:0x113 / me=umh / subme=9 / psy=1 / psy_rd=1.00:0.15 / mixed_ref=1 / me_range=24 / chroma_me=1 / trellis=2 / 8x8dct=1 / cqm=0 / deadzone=21,11 / fast_pskip=1 / chroma_qp_offset=-3 / threads=32 / lookahead_threads=4 / sliced_threads=0 / nr=0 / decimate=1 / interlaced=0 / bluray_compat=0 / constrained_intra=0 / bframes=3 / b_pyramid=2 / b_adapt=2 / b_bias=0 / direct=3 / weightb=1 / open_gop=0 / weightp=2 / keyint=250 / keyint_min=25 / scenecut=40 / intra_refresh=0 / rc_lookahead=50 / rc=2pass / mbtree=1 / bitrate=2500 / ratetol=1.0 / qcomp=0.60 / qpmin=0 / qpmax=69 / qpstep=4 / cplxblur=20.0 / qblur=0.5 / vbv_maxrate=31250 / vbv_bufsize=31250 / nal_hrd=none / filler=0 / ip_ratio=1.40 / aq=3:1.00
Language                                 : Italian
Default                                  : Yes
Forced                                   : No

Audio #1
ID                                       : 2
Format                                   : AC-3
Format/Info                              : Audio Coding 3
Mode extension                           : CM (complete main)
Codec ID                                 : A_AC3
Duration                                 : 1h 49mn
Bit rate mode                            : Constant
Bit rate                                 : 192 Kbps
Channel(s)                               : 2 channels
Channel positions                        : Front: L R
Sampling rate                            : 48.0 KHz
Bit depth                                : 16 bits
Compression mode                         : Lossy
Stream size                              : 150 MiB (7%)
Title                                    : Ita Ac3
Language                                 : Italian
Default                                  : Yes
Forced                                   : No

Audio #2
ID                                       : 3
Format                                   : AC-3
Format/Info                              : Audio Coding 3
Mode extension                           : CM (complete main)
Codec ID                                 : A_AC3
Duration                                 : 1h 49mn
Bit rate mode                            : Constant
Bit rate                                 : 192 Kbps
Channel(s)                               : 2 channels
Channel positions                        : Front: L R
Sampling rate                            : 48.0 KHz
Bit depth                                : 16 bits
Compression mode                         : Lossy
Stream size                              : 150 MiB (7%)
Title                                    : Eng Ac3
Language                                 : English
Default                                  : No
Forced                                   : No





Info: Per scaricare devi usare un client come uTorrent o Transmission
AnnounceURL
udp://tracker.coppersurfer.tk:6969/announce
Hash 3743a3c1e8b95b4f66008ec83b424d1853e8f127
Peers seeds: 30 , leech: 8
Size 2.21 GB
Completato 511x
Aggiunto 02.08.20 - 18:08:31
Uploader   robbyrs
Votazione (Voti: 0)


Condividi questo bittorrent:


html/blog:


bbcode/forum:




Aggiungi Commento