* Dettagli Torrent   globale  | Commenti (0) 


- Marvels.Agents.of.S.H.I.E.L.D.S07E09.As.I.Have.Always.Been.1080p.WEBMux.ITA.ENG.DD5.1.x264-BlackBit. -


Download via torrent:
Categoria bittorrent SerieTv
Descrizione


[size=36pt]Agents of SHIELD - Stagione 7[/size]




Titolo originale Agents of S.H.I.E.L.D.
Paese Stati Uniti d'America
Anno 2013-2020
Formato serie TV
Genere azione, supereroi, fantascienza, spionaggio
Stagioni 7
Episodi 136
Durata 43 min (episodio)
Lingua originale inglese
Rapporto 16:9



Action drama collegato al Marvel Cinematic Universe, narra le avventure del team di agenti al comando dell'inossidabile Agente Coulson, che decide di assemblare una squadra di specialisti per occuparsi di casi che hanno a che fare con individui dai poteri straordinari. Ben presto Coulson e il resto del gruppo si accorgono di avere a che fare con qualcosa di inaspettato e devastante che cambierà per sempre la faccia dello S.H.I.E.L.D.


[spoiler][/spoiler]


[spoiler]
General
Unique ID : 253092017843995301820759412881564421389 (0xBE67BFE4CF5DD82D59CE0237ECF0CD0D)
Complete name : C:UsersAdministratorVideosAgents Of SHIELD S07Marvels.Agents.of.S.H.I.E.L.D.S07E01.The.New.Deal.1080p.WEBMux.ITA.ENG.DD5.1.x264-BlackBit.mkv
Format : Matroska
Format version : Version 4
File size : 2.90 GiB
Duration : 43 min 3 s
Overall bit rate : 9 632 kb/s
Encoded date : UTC 2020-06-05 20:51:16
Writing application : mkvmerge v46.0.0 ('No Deeper Escape&#39 64-bit
Writing library : libebml v1.3.10 + libmatroska v1.5.2

Video
ID : 1
Format : AVC
Format/Info : Advanced Video Codec
Format profile : [email protected]
Format settings : CABAC / 4 Ref Frames
Format settings, CABAC : Yes
Format settings, Reference : 4 frames
Codec ID : V_MPEG4/ISO/AVC
Duration : 43 min 3 s
Bit rate mode : Constant
Bit rate : 8 349 kb/s
Nominal bit rate : 10 000 kb/s
Width : 1 920 pixels
Height : 1 080 pixels
Display aspect ratio : 16:9
Frame rate mode : Constant
Frame rate : 23.976 (24000/1001) FPS
Color space : YUV
Chroma subsampling : 4:2:0
Bit depth : 8 bits
Scan type : Progressive
Bits/(Pixel*Frame) : 0.168
Stream size : 2.51 GiB (87%)
Default : Yes
Forced : Yes
Color range : Limited
Color primaries : BT.709
Transfer characteristics : BT.709
Matrix coefficients : BT.709

Audio #1
ID : 2
Format : AC-3
Format/Info : Audio Coding 3
Commercial name : Dolby Digital
Codec ID : A_AC3
Duration : 43 min 3 s
Bit rate mode : Constant
Bit rate : 640 kb/s
Channel(s) : 6 channels
Channel layout : L R C LFE Ls Rs
Sampling rate : 48.0 kHz
Frame rate : 31.250 FPS (1536 SPF)
Compression mode : Lossy
Stream size : 197 MiB (7%)
Language : Italian
Service kind : Complete Main
Default : Yes
Forced : Yes

Audio #2
ID : 3
Format : E-AC-3
Format/Info : Enhanced AC-3
Commercial name : Dolby Digital Plus
Codec ID : A_EAC3
Duration : 43 min 3 s
Bit rate mode : Constant
Bit rate : 640 kb/s
Channel(s) : 6 channels
Channel layout : L R C LFE Ls Rs
Sampling rate : 48.0 kHz
Frame rate : 31.250 FPS (1536 SPF)
Compression mode : Lossy
Stream size : 197 MiB (7%)
Language : English
Service kind : Complete Main
Default : No
Forced : No

Text #1
ID : 4
Format : UTF-8
Codec ID : S_TEXT/UTF8
Codec ID/Info : UTF-8 Plain Text
Duration : 4 s 205 ms
Bit rate : 51 b/s
Count of elements : 1
Stream size : 27.0 Bytes (0%)
Language : Italian
Default : Yes
Forced : Yes

Text #2
ID : 5
Format : UTF-8
Codec ID : S_TEXT/UTF8
Codec ID/Info : UTF-8 Plain Text
Duration : 42 min 18 s
Bit rate : 75 b/s
Count of elements : 682
Stream size : 23.4 KiB (0%)
Language : Italian
Default : No
Forced : No

Text #3
ID : 6
Format : UTF-8
Codec ID : S_TEXT/UTF8
Codec ID/Info : UTF-8 Plain Text
Duration : 41 min 56 s
Bit rate : 72 b/s
Count of elements : 825
Stream size : 22.4 KiB (0%)
Language : English
Default : No
Forced : No

Text #4
ID : 7
Format : UTF-8
Codec ID : S_TEXT/UTF8
Codec ID/Info : UTF-8 Plain Text
Duration : 42 min 17 s
Bit rate : 82 b/s
Count of elements : 1056
Stream size : 25.4 KiB (0%)
Title : SDH
Language : English
Default : No
Forced : No[/spoiler]
Info: Per scaricare devi usare un client come uTorrent o Transmission
AnnounceURL
udp://tracker.coppersurfer.tk:6969/announce
Hash 3695ebb1009147b08bf832548d08080597f95972
Peers seeds: 14 , leech: 4
Size 2.95 GB
Completato 192x
Aggiunto 01.08.20 - 21:08:24
Uploader Anonymous
Votazione (Voti: 0)


Condividi questo bittorrent:


html/blog:


bbcode/forum:




Aggiungi Commento